TITLE "Classic Yes"
FILE "04 - Starship Trooper.mp3" MP3
TRACK 01 AUDIO
TITLE "Starship Trooper"
PERFORMER "Yes"
INDEX 01 00:00:00
TRACK 02 AUDIO
TITLE "Life Seeker"
PERFORMER "Yes"
INDEX 01 00:00:01
TRACK 03 AUDIO
TITLE "Disillusion"
PERFORMER "Yes"
INDEX 01 03:17:00
TRACK 04 AUDIO
TITLE "Wurm"
PERFORMER "Yes"
INDEX 01 05:35:00